#TITLE:Tetrinet;
#SUBTITLE:;
#ARTIST:Kiai;
#TITLETRANSLIT:;
#SUBTITLETRANSLIT:;
#ARTISTTRANSLIT:;
#CREDIT:;
#BANNER:Tetrinet.jpg;
#BACKGROUND:tetrinet-bg.jpg;
#LYRICSPATH:;
#CDTITLE:tsukacdtitle.png;
#MUSIC:tetrinet.mp3;
#OFFSET:1.560;
#SAMPLESTART:26.000;
#SAMPLELENGTH:12.000;
#SELECTABLE:YES;
#BPMS:0.000=147.000,228.000=65.650,233.938=38.510,234.813=32.460;
#STOPS:;
#BGCHANGES:;
// cache tags:
#FIRSTBEAT:4.000;
#LASTBEAT:236.500;
#SONGFILENAME:Songs/Music V.I.P ^_^/Tetrinet (Tsuka)/Tetrinet.sm;
#HASMUSIC:1;
#HASBANNER:1;
#MUSICLENGTH:103.003;
// end cache tags

//---------------dance-single - ----------------
#NOTES:
     dance-single:
     :
     Hard:
     11:
     1.000,1.000,1.000,0.136,1.000,643.000,210.000,14.000,0.000,0.000:

0000
0000
0000
0000
,
1100
0000
0010
0000
0001
0110
0000
1010
0000
0001
0100
0010
0100
0000
0001
0000
,
0011
0000
0100
0000
1000
0110
0000
0101
0000
1000
0010
0100
0010
0000
1000
0000
,
1100
0000
0010
0000
0100
1100
0000
1010
0000
0001
0010
0100
0010
0000
0001
0000
,
0101
0000
0010
0000
0100
0101
0000
0011
0000
1000
0100
0010
0100
0000
1000
0000
,
2010
0000
3001
0000
0010
0110
0000
1100
0000
0001
0100
0010
0100
0000
0001
0000
,
0012
0000
1003
0000
0010
0110
0000
0011
0000
1000
0010
0100
0010
0000
1000
0000
,
0210
0000
0301
0000
0010
0110
0000
1010
0000
0001
0010
0100
0010
0000
0001
0000
,
0120
0000
1030
0000
0100
0011
0000
0101
0000
0010
1000
0100
0010
0000
0100
0000
,
0101
0010
1000
0100
0010
0100
1000
0100
0010
0001
1000
0100
0010
0100
1000
0001
,
0100
0010
0100
0001
0010
0100
0010
0001
0010
0100
1000
0001
0010
0100
0010
0001
,
1000
0010
0100
0010
1000
0100
0010
0100
1000
0010
0100
0010
1000
0100
0010
0100
,
1000
0010
0100
0001
0010
0100
0010
0001
1000
0010
0100
0001
0100
0010
0100
0001
,
0110
1000
0100
0010
0001
1000
0100
0010
0100
1000
0010
0100
0010
1000
0001
0100
,
0010
0010
1000
1000
0001
0001
1000
1000
0010
0010
1000
1000
0001
0001
1000
1000
,
0001
0100
0110
0100
0010
1000
1010
1000
0100
0010
0011
0001
0100
0010
1010
1000
,
0010
0100
0101
0001
0100
0010
1010
1100
0000
1001
0000
0000
0101
1000
0100
0010
,
0011
0010
0011
0001
0101
0100
0101
0001
,
1001
0000
1000
0000
1100
0000
0100
0000
0110
0000
0010
0000
0011
0000
0001
0100
,
0110
0010
1010
1000
1100
1000
1001
0001
,
0101
0000
0001
0000
0011
0000
0010
0110
0010
0000
0101
0000
1100
0001
0100
0010
,
2010
3010
0110
0010
1010
1000
1100
0100
,
0110
0000
0010
0000
0011
0000
0001
0000
1001
0000
0001
0000
0101
0000
0100
0010
,
0110
0010
1010
1000
1100
0100
0110
0100
,
1100
0000
1000
0000
1001
0000
0001
0101
0000
0100
0010
1000
1100
1000
0100
0010
,
0011
0001
0100
0010
1010
1000
0100
0010
0100
1000
0001
0010
0011
0001
1000
0100
,
0010
0100
1000
0001
0101
1000
0001
0010
0100
0010
0001
0100
1010
0001
0100
0010
,
0100
0001
0010
0100
1100
0001
0010
0100
0010
0001
1000
0100
0011
1000
0010
0100
,
0010
1000
0100
0010
0011
0000
0000
1001
0000
0000
0100
0001
0010
0100
1000
0100
,
0110
0001
0100
0010
1010
1000
0100
0010
0100
1000
0001
0010
0011
0001
1000
0100
,
0010
0100
1000
0001
0101
1000
0001
0010
0100
0010
0001
0100
1010
0001
0100
0010
,
0100
0001
0010
0100
1100
0001
0010
0100
0010
0001
1000
0100
0011
1000
0010
0100
,
0010
1000
0001
0100
0010
0000
0000
1001
0000
0000
0010
1000
0100
0010
0001
0010
,
0011
1100
0110
1100
1010
0011
0101
0110
,
1010
0110
0101
1100
0110
1100
0101
0110
,
1010
0000
0110
0000
0101
0000
0011
1000
0101
0000
1010
0000
1100
0000
1001
0000
,
0101
0000
0011
0000
0101
0000
0011
0000
1001
0000
1010
0000
1100
0000
1010
0001
,
1100
0011
0110
0011
0101
1100
1010
0110
,
0101
0110
1010
0011
0110
0011
1010
0110
,
0101
0000
0110
0000
1010
0000
1100
0001
1010
0000
0101
0000
0011
0000
1001
0000
,
1010
0000
1100
0000
1010
0000
1100
0000
1001
0000
0101
0000
0011
0000
0101
1000
,
0011
0000
0100
0000
1000
0110
0000
0101
0000
1000
0010
0100
0010
0000
1000
0000
,
1100
0000
0010
0000
0001
0110
0000
1010
0000
0001
0100
0010
0100
0000
0001
1000
,
0011
0000
0100
0000
1000
0011
0000
0101
0000
1000
0100
0010
0100
0000
1000
0000
,
1010
0000
0100
0000
0001
1010
0000
1100
0000
0001
0010
0100
0010
0000
0001
1000
,
0011
0000
1000
0000
0001
0110
0000
1010
0000
0001
0100
0010
0100
0000
0001
0000
,
0011
0000
0100
0000
1000
0110
0000
0101
0000
1000
0010
0100
0010
0000
1000
0001
,
1100
0000
0010
0000
0001
1100
0000
1010
0000
0001
0010
0100
0010
0000
0001
0000
,
0101
0000
0010
0000
0100
0101
0000
0011
0000
1000
0100
0010
0100
0000
1000
0000
,
2100
0000
3001
0000
0100
0101
0000
0011
0000
1000
0100
0010
0100
0000
1000
0000
,
0101
0000
0010
0000
0001
1100
0000
0011
0000
0001
0010
0100
1000
0000
0001
1000
,
0110
0000
0100
0000
0001
0011
0000
1001
0000
1100
0010
0001
0100
0000
0001
0100
,
0011
0000
1000
0000
0001
0110
0000
1010
0000
0001
0100
0010
0100
0001
0010
0100
,
0012
0000
0103
0000
1000
0110
0000
0101
0000
1000
0010
0100
0010
0000
1000
0000
,
2001
0000
3010
0000
0001
1100
0000
0011
0000
1000
0010
0100
0010
0000
1000
0010
,
0101
0000
0010
0000
1000
0101
0000
0011
0000
1000
0100
0010
0100
0000
1000
0000
,
2010
3002
0023
0230
,
1300
0000
0000
0000
0000
0000
0000
0000
0000
0000
0000
0000
0000
0000
0000
0000
0000
0000
0000
0000
0000
0000
0000
0011
0000
0000
0000
1100
0000
0000
0000
0110
0000
0000
0000
0000
0000
0000
0000
0000
0000
0000
0000
0101
0000
0000
0000
0000
0000
0000
0000
1001
0000
0000
0000
0000
0000
0000
0000
1010
0000
0000
0000
0110
,
0000
0000
0000
0000
0000
0000
0000
0000
0000
0000
0000
0000
0000
0000
0000
0000
0000
0000
0000
1100
0000
0000
0000
0110
0000
0000
0000
0011
0000
0000
0000
0110
0000
0000
0000
0000
0000
0000
0000
1010
0000
0000
0000
0000
0000
0101
0000
0000
0000
0000
0000
0000
0000
0000
0000
2002
0000
0000
0000
0000
0000
0000
0000
0000
,
0000
3003
0000
0000
0000
0000
0000
0000
;
